How To Steal A Million (1966) [1080p] [YTS AG] | regarder C'est beau la vie quand on y pense WEBRip Film Torrent complet en français BlueRay | Dernière page

Details for this torrent 

Enrique Iglesias Ft. Yandel, Juan Magan - Noche Y De Dia - 1080p
Type:
Video > Music videos
Files:
1
Size:
105.18 MiB (110289171 Bytes)
Tag(s):
Enrique Iglesias Yandel Juan Magan
Uploaded:
2015-03-01 05:25:12 GMT
By:
MusicVideos-HQ Trusted
Seeders:
12
Leechers:
0
Comments
0  

Info Hash:
6DC037B2A52231D54AA48AA034466BC5E08F0903




(Problems with magnets links are fixed by upgrading your torrent client!)
(Don't download unprotected! If you don't already have one, get a VPN and Stay Anonymous!)
Capturas: http://imgur.com/bMOuf65

General

Complete name                  : C:UsersEliasVideosvid3EnriqueIglesiasFt.Yandel,JuanMagan-NocheYDeDia-musicvideos-hq.net.mp4
Format                         : MPEG-4
Format profile                 : Base Media
Codec ID                       : isom
File size                      : 105 MiB
Duration                       : 4mn 43s
Overall bit rate               : 3 107 Kbps
Writing application            : Lavf55.33.100

Video
ID                             : 1
Format                         : AVC
Format/Info                    : Advanced Video Codec
Format profile                 : [email protected]
Format settings, CABAC         : Yes
Format settings, ReFrames      : 2 frames
Codec ID                       : avc1
Codec ID/Info                  : Advanced Video Coding
Duration                       : 4mn 43s
Bit rate                       : 2 847 Kbps
Width                          : 1 920 pixels
Height                         : 1 080 pixels
Display aspect ratio           : 16:9
Frame rate mode                : Variable
Frame rate                     : 23.976 fps
Minimum frame rate             : 23.974 fps
Maximum frame rate             : 90 000.000 fps
Color space                    : YUV
Chroma subsampling             : 4:2:0
Bit depth                      : 8 bits
Scan type                      : Progressive
Bits/(Pixel*Frame)             : 0.057
Stream size                    : 96.4 MiB (92%)

Audio
ID                             : 2
Format                         : AAC
Format/Info                    : Advanced Audio Codec
Format profile                 : LC
Codec ID                       : 40
Duration                       : 4mn 43s
Bit rate mode                  : Constant
Bit rate                       : 254 Kbps
Channel(s)                     : 2 channels
Channel positions              : Front: L R
Sampling rate                  : 44.1 KHz
Compression mode               : Lossy
Stream size                    : 8.58 MiB (8%)